<svg xmlns="http://www.w3.org/2000/svg"><defs><font id="SFbookclub" horiz-adv-x="1515"><font-face font-family="SFbookclub" font-weight="400" units-per-em="2048" panose-1="4 11 5 0 0 0 0 0 0 0" ascent="1638" descent="-410" x-height="1444" cap-height="1444" bbox="-492 -532 2560 2560" underline-thickness="50" underline-position="-125" unicode-range="U+0020-2020"/><glyph glyph-name=".notdef" horiz-adv-x="3072" d="M512 0v2560h2048V0H512zm1982 66v2428H578V66h1916z"/><glyph glyph-name="grave" unicode="`" horiz-adv-x="737" d="m492 1464 184-348H317L61 1464h431z"/><glyph glyph-name="one" unicode="1" horiz-adv-x="1065" d="m119 705-146 376 539 363h440V0H436v938z"/><glyph glyph-name="two" unicode="2" horiz-adv-x="1212" d="M586 348h585V0H41v406q236 118 418 235 91 63 143.5 124T655 907q0 104-77 152.5T389 1108q-177 0-319-61v376q114 21 226 33t226 12q275 0 462-108t187-365q0-117-52.5-215T983 606.5 812 477 586 352v-4z"/><glyph glyph-name="three" unicode="3" horiz-adv-x="1212" d="M223 567v316q78-4 115-4 70 0 126 6t102 33 46 83q0 79-61 112.5T403 1147t-179.5-17T57 1090v323q95 30 210 42.5t261 12.5q112 0 219-22t199-69.5 147.5-126.5 55.5-187q0-246-275-326v-4q295-77 295-334 0-148-91.5-243T843 18 539-25Q416-25 277.5-8.5T43 35v336q70-24 169.5-42T403 311q109 0 169.5 27.5T633 440q0 82-70.5 112T399 582q-63 0-176-15z"/><glyph glyph-name="four" unicode="4" horiz-adv-x="1442" d="M426 584h384v451zm732 0h251V276h-252V0H810v276H33v308l777 860h347z"/><glyph glyph-name="five" unicode="5" horiz-adv-x="1212" d="M1104 1444v-336H565V885q55 6 160 6 120 0 222-54t162-155 60-233q0-176-93-281.5t-239-149T516-25q-62 0-141 7T222.5 3 76 37v330q183-43 301-43 256 0 256 163 0 100-83.5 138.5T350 664q-117 0-256-33v813h1010z"/><glyph glyph-name="six" unicode="6" horiz-adv-x="1401" d="M1237 1430v-334q-25 6-72.5 18t-83 18-88 10.5T881 1147q-140 0-236-68t-96-221q51 42 130.5 65T870 946q130 0 244.5-54.5t184-159.5 69.5-249q0-169-89.5-283.5T1044.5 30 735-25q-205 0-366 91T120.5 320 33 690q0 248 98 424t272 265 398 89q254 0 436-38zM897 483q0 86-47 137.5T721 672q-84 0-128-53t-44-148q0-80 45.5-133T721 285q80 0 128 56t48 142z"/><glyph glyph-name="seven" unicode="7" horiz-adv-x="1212" d="M25 1444h1163v-397L674 0H59l609 1047H25v397z"/><glyph glyph-name="eight" unicode="8" horiz-adv-x="1401" d="M25 385q0 282 286 350v4q-89 30-146.5 71.5T78 917t-29 156q0 112 55.5 188.5t150 122 207.5 65 236 19.5q172 0 316.5-36.5t235.5-125 91-233.5q0-133-65.5-211T1083 737v2-4q132-33 212.5-120.5T1376 385q0-114-59.5-194T1160 64 942-4 698-25q-167 0-320 39T125 144 25 385zm835 82q0 82-40 133t-122 51-119.5-51.5T541 463q0-84 38-137.5T698 272q82 0 122 54.5T860 467zm-315 569q0-75 40.5-122T698 866q69 0 108.5 47.5T846 1032q0 69-39.5 116.5T698 1196q-71 0-112-46.5T545 1036z"/><glyph glyph-name="nine" unicode="9" horiz-adv-x="1401" d="M164 14v334q56-15 104-26t112-18 140-7q138 0 235 68t97 221q-110-88-322-88-129 0-243 53.5T103 711 33 961q0 128 52.5 224.5t142.5 159 202 93 236 30.5q155 0 285-51.5t223-147 143.5-228T1368 754q0-248-98-424.5T998.5 64 600-25q-249 0-436 39zm340 947q0-85 48-137t128-52q85 0 128.5 53T852 973q0 81-44 133.5T680 1159q-81 0-128.5-55.5T504 961z"/><glyph glyph-name="zero" unicode="0" horiz-adv-x="1516" d="M47 721q0 162 46.5 298.5t137 238 223.5 156 306 54.5q163 0 294.5-52t224-151.5 141-237T1468 721q0-225-81-393.5T1145.5 67 760-25q-224 0-385.5 93.5T130 332 47 721zm537 0q0-108 4-176t19.5-124 53-90 99.5-34q79 0 117 56.5t46.5 140T932 721q0 150-8.5 234t-46 138-117.5 54q-82 0-120.5-54.5t-47-138T584 721z"/><glyph glyph-name="hyphen" unicode="-" horiz-adv-x="758" d="M92 377v360h574V377H92z"/><glyph glyph-name="equal" unicode="=" horiz-adv-x="1034" d="M963 543V215H72v328h891zm0 450V666H72v327h891z"/><glyph glyph-name="q" unicode="q" horiz-adv-x="1639" d="M1639 430V0L780-25q-185 5-326.5 53T212 171.5 61 405 10 721q0 182 53 312.5T218 1260t246 144 368 60q228-12 402-76t284-212 98-440q-24-132-94.5-230t75.5-76h42zM527 702q0-139 62.5-242T836 357v71q276-28 297 73.5t27 200.5q-6 137-67 240.5T836 1046q-309 0-309-344z"/><glyph glyph-name="w" unicode="w" horiz-adv-x="1800" d="M922 612 770 0H300l-440 1444h470l198-624 172 624h432l201-624 134 624h470L1575 0h-470z"/><glyph glyph-name="e" unicode="e" horiz-adv-x="1360" d="M60 0v1444h1238v-430H530V848h496V596H530V430h890V0H60z"/><glyph glyph-name="r" unicode="r" horiz-adv-x="1550" d="M60 0v1444h940q174-16 286-92t164-204q40-192 4-296t-126-174-258-110l108-138h432V0h-570L582 477V0H60zm522 1084V818h364q29 0 63 21.5t36 108.5q-5 83-40.5 109.5T945 1084H582z"/><glyph glyph-name="t" unicode="t" horiz-adv-x="1366" d="M1376 1444v-430H918V0H448v1014H-10v430h1386z"/><glyph glyph-name="y" unicode="y" horiz-adv-x="1472" d="M1602 1444 972 530V0H500v530l-630 914h570l294-446 298 446h570z"/><glyph glyph-name="u" unicode="u" horiz-adv-x="1454" d="M480 1444V590q-6-146 56-203t194-61q106 2 177 62t67 202v854h470V597q-3-180-59.5-287.5t-143-179.5-217-112T734-26q-133 3-270.5 36.5T223.5 116t-158 185T10 596v848h470z"/><glyph glyph-name="i" unicode="i" horiz-adv-x="550" d="M40 1444h470V0H40v1444z"/><glyph glyph-name="o" unicode="o" horiz-adv-x="1677" d="M1668 714q0-237-99-404T1282.5 59 835-25 388.5 59.5 106 309.5 10 714q0 181 55 318.5T226 1264t260 142.5 349 48.5q259 0 447-85.5t287-252 99-403.5zm-1145-4q0-139 62.5-242T832 365q142 0 212.5 54t88 123.5T1156 710q-6 139-67 242.5T832 1056q-309 0-309-346z"/><glyph glyph-name="p" unicode="p" horiz-adv-x="1501" d="M60 0v1444h940q174-16 288-90t162-206q44-160 36-240t-32-150-132-162-288-119H582V0H60zm522 1084V818h364q29 0 63 21.5t36 108.5q-5 83-40.5 109.5T945 1084H582z"/><glyph glyph-name="bracketleft" unicode="[" horiz-adv-x="870" d="M594 1075V-51h205v-379H164v1884h635v-379H594z"/><glyph glyph-name="bracketright" unicode="]" horiz-adv-x="870" d="M276-49v1126H72v379h635V-428H72v379h204z"/><glyph glyph-name="backslash" unicode="\" horiz-adv-x="1136" d="M676-430 61 1454h400l614-1884H676z"/><glyph glyph-name="a" unicode="a" d="m-80 0 475 1444h717L1595 0h-546l-91 260H529L438 0H-80zm835 1124L548 552h398z"/><glyph glyph-name="s" unicode="s" horiz-adv-x="1135" d="M1196 1444H408q-276 0-328-268t296-588q211-166-72-158H0V0h768q312 52 318 320T768 872q-181 150 76 142h352v430z"/><glyph glyph-name="d" unicode="d" horiz-adv-x="1662" d="M60 0v1444h852q173 0 305-46t223-124 151.5-211 60.5-346q-11-197-66-335t-146-218-222.5-124T888 0H60zm482 1086V360h275q93 0 150 39.5t93 101 46 221.5q-3 146-40.5 215.5t-96.5 109-154 39.5H542z"/><glyph glyph-name="f" unicode="f" horiz-adv-x="1328" d="M60 0v1444h1238v-430H530V848h496V596H530V0H60z"/><glyph glyph-name="g" unicode="g" horiz-adv-x="1484" d="M1032 430v292h452V0H844Q609 0 419 83.5T119.5 334 10 743q0 170 65.5 303.5t181.5 222 266.5 132T844 1444h640v-430h-452q-152 0-225-9t-130-30-101-73-51-184q5-128 51-183t112-73 136-25 208-7z"/><glyph glyph-name="h" unicode="h" horiz-adv-x="1398" d="M888 946v498h470V0H888v520H510V0H40v1444h470V946h378z"/><glyph glyph-name="j" unicode="j" horiz-adv-x="879" d="M878 1444v-430h-74V454q-6-166-48-228T633 105 412 14Q276 4 191 3T8 0v430q78-20 176 0 78 18 108 42t42 114v858h544z"/><glyph glyph-name="k" unicode="k" horiz-adv-x="1404" d="M530 1444V974l330 470h470L792 722l240-292h432V0H894L530 430V0H60v1444h470z"/><glyph glyph-name="l" unicode="l" horiz-adv-x="1312" d="M60 0v1444h470V430h782V0H60z"/><glyph glyph-name="semicolon" unicode=";" horiz-adv-x="1360" d="M60 0v1014H0v430h1298v-430H530V848h496V596H530V430h1230V0H60z"/><glyph glyph-name="quotesingle" unicode="'" horiz-adv-x="647" d="M170 813v631h307V813H170z"/><glyph glyph-name="z" unicode="z" horiz-adv-x="1400" d="M40 1444h1320v-430L661 430h699V0H40v430l699 584H40v430z"/><glyph glyph-name="x" unicode="x" horiz-adv-x="1472" d="m1602 1444-530-722L1602 0h-570L734 446 440 0h-570l530 722-530 722h570l294-446 298 446h570z"/><glyph glyph-name="c" unicode="c" horiz-adv-x="1484" d="M1032 430h452V0H844Q609 0 419 83.5T119.5 334 10 743q0 170 65.5 303.5t181.5 222 266.5 132T844 1444h640v-430h-452q-152 0-225-9t-130-30-101-73-51-184q5-128 51-183t112-73 136-25 208-7z"/><glyph glyph-name="v" unicode="v" horiz-adv-x="1630" d="M-80 1444 428 0h767l515 1444h-579L799 335 471 1444H-80z"/><glyph glyph-name="b" unicode="b" horiz-adv-x="1628" d="M60 0v1444h985q237-2 360.5-82t149.5-268q9-144-61-226t-231-135v-4q79-10 146-42.5t112.5-77T1592 509t25-110q0-171-87.5-259t-225-115T971 0H60zm498 559V292h321q83-3 145 36t62 96q6 63-50.5 99T879 559H558zm0 535V875h350q29 0 61 30.5t34 81.5q-4 59-38.5 83t-57.5 24H558z"/><glyph glyph-name="n" unicode="n" horiz-adv-x="1430" d="M60 0v1444h470l430-540v540h470V0H960L530 540V0H60z"/><glyph glyph-name="m" unicode="m" horiz-adv-x="1650" d="M40 0v1444h470l316-600 314 600h470V0h-470v600L838 0h-26L510 600V0H40z"/><glyph glyph-name="comma" unicode="," horiz-adv-x="758" d="M188 397h435L387-233H61z"/><glyph glyph-name="period" unicode="." horiz-adv-x="758" d="M156 0v397h446V0H156z"/><glyph glyph-name="slash" unicode="/" horiz-adv-x="758" d="M518 1468h363L240-25h-363z"/><glyph glyph-name="space" horiz-adv-x="950"/><glyph glyph-name="asciitilde" unicode="~" horiz-adv-x="1472" d="M1708 1444v-430h-400L972 530V0H500v530l-630 914h570l294-446 298 446h676z"/><glyph glyph-name="exclam" unicode="!" horiz-adv-x="872" d="M162 1444h549l-80-909H242zm51-1059h446V0H213v385z"/><glyph glyph-name="at" unicode="@" horiz-adv-x="1584" d="M908 403q-22 0-37 20-16 20-16 48 0 23 11 41 12 20 31 25h245v-66q1-17-5-34-12-34-49-34H908zM441 1449q-224 0-339-139Q0 1187 0 979V1h392v978q-1 17 5 34 6 14 16 23 13 11 33 11h642q20 0 33-11 10-9 16-23 6-17 5-34v-66H912q-7 0-15-1-14-1-30-2-20-2-40-6-52-9-99-27-130-48-198-152-67-103-67-254 0-209 102-332Q680 0 904 0h189q224 0 339 139 102 123 102 332v508q0 208-102 331-115 139-339 139H441z"/><glyph glyph-name="numbersign" unicode="#" horiz-adv-x="1556" d="m31 328 61 286h205l41 205H133l62 287h204l72 328h369l-72-328h174l72 328h368l-71-328h215l-62-287h-215l-41-205h215l-61-286h-215L1075 0H707l71 328H604L532 0H164l72 328H31zm676 491-41-205h174l41 205H707z"/><glyph glyph-name="dollar" unicode="$" horiz-adv-x="549" d="M176 1384q-71 0-122-54-50-54-50-127 0-51 32-99l234-243H0V659h177v-69h146v69h4q71 0 122 54 50 54 50 127 0 52-31 98-12 18-210 220l-25 25h256v201H323v64H177v-64h-1z"/><glyph glyph-name="percent" unicode="%" horiz-adv-x="901" d="M92 725h231l435 724H527zm610 165q2 0 3 1l2 2v39q-1 2-2 3t-3 1h-34q-2 0-3-1t-2-3v-39q1-2 2-2 1-1 3-1h34zm29 210q61 0 92-38 28-34 28-90V853q0-57-28-90-31-38-92-38h-92q-61 0-92 38-28 33-28 90v119q0 57 28 90 31 38 92 38h92zm-548 139q2 0 3 1l2 2v39q-1 2-2 3t-3 1h-34q-2 0-3-1t-2-3v-39q1-2 2-2 1-1 3-1h34zm29 210q61 0 92-38 28-34 28-90v-119q0-57-28-90-31-38-92-38h-92q-61 0-92 38-28 33-28 90v119q0 57 28 90 31 38 92 38h92z"/><glyph glyph-name="asciicircum" unicode="^" horiz-adv-x="2059" d="M923 1302q284 12 356-266 11-284-267-355-284-12-355 266-12 284 266 355zM0 1249q107 385 450 604 142 77 266 112 142 36 243 24 337 18 651-225 249-219 331-539v-23h-367q-53 201-301 361-243 130-509 47l-119-53q-195-119-284-355H0v47zm1574-462h367q-71-343-331-562Q1344 18 1048 0 906-6 793 12 172 148 0 740v47h361q184-450 675-432 213 24 379 172 118 118 165 260h-6z"/><glyph glyph-name="ampersand" unicode="&amp;" horiz-adv-x="1275" d="M446 401q-23 0-38 20-16 20-16 48 0 25 14 44 15 23 40 24h387V401H446zm387 646V910H446q-27 1-43 27-11 19-11 42 0 28 16 47 15 20 38 21h249v402H366q-150 0-258-139T0 979q0-162 55-265Q0 601 0 469 0 192 164 83 288 0 543 0h682v1047H833z"/><glyph glyph-name="asterisk" unicode="*" horiz-adv-x="621" d="m401 950 102 102-41 40h109v145H460l43 43-102 102-42-41v107H215v-108l-42 42-103-102 43-43H0v-145h111l-43-43 102-102 45 45V881h144v110z"/><glyph glyph-name="parenleft" unicode="(" horiz-adv-x="758" d="M725-105H350Q265 37 202.5 190.5T106 502 72 821q0 454 278 928h375q-58-107-101-218t-72.5-230.5T508 1061t-14-240q0-119 14.5-240t43-239T623 113.5 725-105z"/><glyph glyph-name="parenright" unicode=")" horiz-adv-x="758" d="M410-105H35q231 424 231 926 0 120-15 246t-43 239-74 231-99 212h375q86-145 147.5-296t96-310.5T688 821t-34.5-321.5-96.5-310T410-105z"/><glyph glyph-name="underscore" unicode="_" horiz-adv-x="727" d="M748-154v-378H-20v378h768z"/><glyph glyph-name="plus" unicode="+" horiz-adv-x="1085" d="M727 1085V788h297V410H727V113H358v297H61v378h297v297h369z"/><glyph glyph-name="Q" unicode="Q" horiz-adv-x="1650" d="M1610 0v1014h400v430h-870L824 844l-314 600H40V0h470v600L812 0h26l302 600V0h470z"/><glyph glyph-name="W" unicode="W" horiz-adv-x="1800" d="M1006 612 854 0H384L52 1014h-300v430h662l198-624 172 624h432l201-624 134 624h465L1659 0h-470z"/><glyph glyph-name="E" unicode="E" horiz-adv-x="1360" d="M60 0v1014h-300v430h1538v-430H530V848h496V596H530V430h890V0H60z"/><glyph glyph-name="R" unicode="R" horiz-adv-x="1550" d="M60 0v1444h940q174-16 286-92t164-204q40-192 4-296t-126-174-258-110l108-138h772V0h-910L582 477V0H60zm522 1084V818h364q29 0 63 21.5t36 108.5q-5 83-40.5 109.5T945 1084H582z"/><glyph glyph-name="T" unicode="T" horiz-adv-x="1070" d="M1228 1444v-430H770V0H300v1014h-458v430h1386z"/><glyph glyph-name="Y" unicode="Y" horiz-adv-x="1472" d="M-136 1444v-430h300l336-484V0h472v530l630 914h-570L738 998l-298 446h-576z"/><glyph glyph-name="U" unicode="U" horiz-adv-x="1404" d="M60 0v1444h470V974l330 470h470L792 722 1252 4q62-92 152-86v-430q-250-2-352 180L530 430V0H60z"/><glyph glyph-name="I" unicode="I" horiz-adv-x="1398" d="M888 946v498h870v-430h-400V0H888v520H510V0H40v1444h470V946h378z"/><glyph glyph-name="O" unicode="O" horiz-adv-x="1430" d="M60 0v1014h-300v430h770l430-540v540h470V0H960L530 540V0H60z"/><glyph glyph-name="P" unicode="P" horiz-adv-x="1501" d="M60 0v1014h-300v430h1240q174-16 288-90t162-206q44-160 36-240t-32-150-132-162-288-119H582V0H60zm522 1084V818h364q29 0 63 21.5t36 108.5q-5 83-40.5 109.5T945 1084H582z"/><glyph glyph-name="braceleft" unicode="{" horiz-adv-x="942" d="M481 512q8-2 22-6 13-4 46-23 33-18 59-44 25-25 47-75 21-49 21-108V72q0-47 33-80 32-33 79-33h72v-389H635q-178 0-283 109Q246-211 246-20v204q0 61-43 103-43 41-111 41v368q68 0 111 41t43 103v204q0 190 106 300 105 110 283 110h225v-389h-72q-47 0-79-33-33-33-33-80V768q0-96-49-160-49-63-99-80z"/><glyph glyph-name="braceright" unicode="}" horiz-adv-x="942" d="M461 512q-8 2-21 6-14 4-47 23-33 18-58 44-26 25-47 75-22 49-22 108v184q0 47-32 80-33 33-80 33H82v389h225q178 0 284-109 105-110 105-301V840q0-61 43-102 43-42 111-42V328q-68 0-111-41t-43-103V-20q0-190-105-300-106-110-284-110H82v389h72q47 0 80 33 32 33 32 80v184q0 96 50 160 49 63 98 80z"/><glyph glyph-name="bar" unicode="|" horiz-adv-x="56" d="M-296 1014v430h650v-430h-650z"/><glyph glyph-name="A" unicode="A" d="M755 1124 548 552h398zm-855-110v430h1212L1595 0h-546l-91 260H529L438 0H-80l333 1014h-353z"/><glyph glyph-name="S" unicode="S" horiz-adv-x="1135" d="M1298 1444H408q-276 0-328-268t296-588q211-166-72-158h-796V0H768q312 52 318 320T768 872q-181 150 76 142h454v430z"/><glyph glyph-name="D" unicode="D" horiz-adv-x="1662" d="M60 0v1014h-300v430H912q173 0 305-46t223-124 151.5-211 60.5-346q-11-197-66-335t-146-218-222.5-124T888 0H60zm482 1086V360h275q93 0 150 39.5t93 101 46 221.5q-3 146-40.5 215.5t-96.5 109-154 39.5H542z"/><glyph glyph-name="F" unicode="F" horiz-adv-x="1328" d="M60 0v1014h-300v430h1538v-430H530V848h496V596H530V0H60z"/><glyph glyph-name="G" unicode="G" horiz-adv-x="1440" d="M1001 430v292h439V0H819Q591 0 406.5 83.5T116 334 10 743q0 170 63.5 303.5t176 222 227.5 142 339 65.5q232-12 354-56t246-160l-284-316q-72 60-128 86t-184 34q-124-16-182-54t-102-98-56-184q12-124 56-174t110-82 142-40 213-2z"/><glyph glyph-name="H" unicode="H" horiz-adv-x="1398" d="M888 946v498h470V0H888v520H510V0H40v1014h-300v430h770V946h378z"/><glyph glyph-name="J" unicode="J" horiz-adv-x="877" d="M1046 1444v-430H796V-8q-6-166-36-234T653-370t-193-91-210-41T0-512v430q88-2 141 6t90 26 60 51 35 123v1320h720z"/><glyph glyph-name="K" unicode="K" horiz-adv-x="1404" d="M530 1444V974l330 470h470L792 722l240-292h772V0H894L530 430V0H60v1444h470z"/><glyph glyph-name="L" unicode="L" horiz-adv-x="1312" d="M60 0v1014h-300v430h770V430h782V0H60z"/><glyph glyph-name="colon" unicode=":" horiz-adv-x="758" d="M156 0v397h446V0H156zm0 680v397h446V680H156z"/><glyph glyph-name="quotedbl" unicode="&quot;" horiz-adv-x="1139" d="M635 813v631h307V813H635zm-438 0v631h307V813H197z"/><glyph glyph-name="Z" unicode="Z" d="m739 1124 207-572H548zm855-110v430H382L-101 0h546l91 260h429l91-260h518l-333 1014h353z"/><glyph glyph-name="X" unicode="X" horiz-adv-x="1550" d="M564 1014H0v430h1000q174-16 286-92t164-204q40-192 4-296t-126-174-258-110l108-138h432V0h-570L582 477V0H60v864h886q29 0 63 13t36 60q-5 47-40.5 61.5T945 1013z"/><glyph glyph-name="C" unicode="C" horiz-adv-x="1440" d="M478 738q8-120 52-180t105-95 185-51q128 8 184 34t128 86l284-316q-124-116-246-160T816 0Q592 12 477 65.5t-227.5 142-176 222T10 739q0 174 63.5 307.5t176 222 227.5 142 339 65.5q232-12 354-56t246-160l-284-316q-72 60-128 86t-184 34q-124-16-185-51t-105-95-52-180z"/><glyph glyph-name="V" unicode="V" horiz-adv-x="1550" d="M60 372v1072h940q174-16 279-86t143-135 54-159-21-205-127-181-258-110l372-608q36-52 108-42v-430q-286-8-374 112L582 477V0H60v372zm522 712V818h364q29 0 63 21.5t36 108.5q-5 83-40.5 109.5T945 1084H582z"/><glyph glyph-name="B" unicode="B" horiz-adv-x="1628" d="M60 0v1014h-300v430h1285q237-2 360.5-82t149.5-268q9-144-61-226t-231-135v-4q79-10 146-42.5t112.5-77T1592 509t25-110q0-171-87.5-259t-225-115T971 0H60zm498 559V292h321q83-3 145 36t62 96q6 63-50.5 99T879 559H558zm0 535V875h350q29 0 61 30.5t34 81.5q-4 59-38.5 83t-57.5 24H558z"/><glyph glyph-name="N" unicode="N" horiz-adv-x="1430" d="M60 0v1444h470l430-540v540h870v-430h-400V0H960L530 540V0H60z"/><glyph glyph-name="M" unicode="M" horiz-adv-x="1650" d="M40 0v1014h-300v430h770l316-600 314 600h470V0h-470v600L838 0h-26L510 600V0H40z"/><glyph glyph-name="less" unicode="&lt;" horiz-adv-x="1075" d="M61 348v307l953 359V655L553 502l461-154V-10z"/><glyph glyph-name="greater" unicode="&gt;" horiz-adv-x="1075" d="M1014 655V348L61-10v358l461 154L61 655v359z"/><glyph glyph-name="question" unicode="?" horiz-adv-x="1176" d="M711 535H301q8 143 47 218.5t89.5 113 94 71.5 43.5 86-52 68-150 16q-69 0-150.5-20.5T84 1040v353q118 37 221.5 56t224.5 19q122 0 250-28.5t220-106.5 92-213q0-104-48.5-172.5T896.5 799t-142-132T711 535zM283 385h446V0H283v385z"/><glyph glyph-name="quoteleft" unicode="‘" horiz-adv-x="647" d="M474 816zm2-2-306 314v316h307z"/><glyph glyph-name="quoteright" unicode="’" horiz-adv-x="647" d="M166 815zm2-2v631h307v-315z"/><glyph glyph-name="quotedblleft" unicode="“" horiz-adv-x="1139" d="M940 816zm-438 0zm2-2-307 314v316h307V814zm438 0-307 314v316h307V814z"/><glyph glyph-name="quotedblright" unicode="”" horiz-adv-x="1139" d="M631 815zm-438 0zm2-2v631h307v-315zm438 0v631h307v-315z"/><glyph glyph-name="quotedblbase" unicode="„" horiz-adv-x="1649" d="M1183 478H989v254h660V0h-348v118q-34-48-92-79T1058-8.5 866-25q-175-3-329 47T265 168 78.5 378.5 10 743q0 176 67.5 313.5t186.5 229 273.5 137T866 1468q153-4 315-56t252-142 132-192 56-154h-436q-74 124-142 152t-148 28-148-26-108-70-72-106-36-186q0-132 50-208t112-112 163-46 180 15 147 113z"/><glyph glyph-name="dagger" unicode="†" horiz-adv-x="1034" d="M338 1178v256h358v-256h246V860H696V236H338v624H92v318h246z"/><glyph glyph-name="Agrave" unicode="À" d="m-80 0 475 1444h717L1595 0h-546l-91 260H529L438 0H-80zm835 1124L548 552h398zm-552 672h462l176-318z"/><glyph glyph-name="agrave" unicode="à" d="m-80 0 475 1444h717L1595 0h-546l-91 260H529L438 0H-80zm835 1124L548 552h398zm-552 672h462l176-318z"/><glyph glyph-name="Aacute" unicode="Á" d="M1311 1796H849l-176-318zM-80 0l475 1444h717L1595 0h-546l-91 260H529L438 0H-80zm835 1124L548 552h398z"/><glyph glyph-name="aacute" unicode="á" d="M1311 1796H849l-176-318zM-80 0l475 1444h717L1595 0h-546l-91 260H529L438 0H-80zm835 1124L548 552h398z"/><glyph glyph-name="Acircumflex" unicode="Â" d="m1030 1534-279 283-278-283v-59l280 171 277-174v62zM-80 0l475 1444h717L1595 0h-546l-91 260H529L438 0H-80zm835 1124L548 552h398z"/><glyph glyph-name="acircumflex" unicode="â" d="m-80 0 475 1444h717L1595 0h-546l-91 260H529L438 0H-80zm835 1124L548 552h398zm275 410-279 283-278-283v-59l280 171 277-174v62z"/><glyph glyph-name="Atilde" unicode="Ã" d="m-80 0 475 1444h717L1595 0h-546l-91 260H529L438 0H-80zm835 1124L548 552h398zm297 552q-148-140-323 51t-322-79l60-47q85 167 253-15t408 50z"/><glyph glyph-name="atilde" unicode="ã" d="m-80 0 475 1444h717L1595 0h-546l-91 260H529L438 0H-80zm835 1124L548 552h398zm297 552q-148-140-323 51t-322-79l60-47q85 167 253-15t408 50z"/><glyph glyph-name="Adieresis" unicode="Ä" d="m-80 0 475 1444h717L1595 0h-546l-91 260H529L438 0H-80zm835 1124L548 552h398zm-192 640q51 0 83.5-33.5T679 1647q-5-61-38.5-92t-83.5-31q-48 0-81 33t-33 83q0 56 33 90t87 34zm378 0q51 0 83.5-33.5t32.5-83.5q-5-61-38.5-92t-83.5-31q-48 0-81 33t-33 83q0 56 33 90t87 34z"/><glyph glyph-name="adieresis" unicode="ä" d="m-80 0 475 1444h717L1595 0h-546l-91 260H529L438 0H-80zm835 1124L548 552h398zm-192 640q51 0 83.5-33.5T679 1647q-5-61-38.5-92t-83.5-31q-48 0-81 33t-33 83q0 56 33 90t87 34zm378 0q51 0 83.5-33.5t32.5-83.5q-5-61-38.5-92t-83.5-31q-48 0-81 33t-33 83q0 56 33 90t87 34z"/><glyph glyph-name="Aring" unicode="Å" d="m-80 0 475 1444h717L1595 0h-546l-91 260H529L438 0H-80zm835 1124L548 552h398zm-1 720q83 0 137.5-55t54.5-136q0-82-59.5-140.5T745 1454q-79 0-133.5 53T557 1642q0 91 55 146.5t142 55.5zm-1-76q-54 0-87-34t-33-90q0-50 33-83t81-33q50 0 83.5 31t38.5 92q0 50-32.5 83.5T753 1768z"/><glyph glyph-name="aring" unicode="å" d="m-80 0 475 1444h717L1595 0h-546l-91 260H529L438 0H-80zm835 1124L548 552h398zm-1 720q83 0 137.5-55t54.5-136q0-82-59.5-140.5T745 1454q-79 0-133.5 53T557 1642q0 91 55 146.5t142 55.5zm-1-76q-54 0-87-34t-33-90q0-50 33-83t81-33q50 0 83.5 31t38.5 92q0 50-32.5 83.5T753 1768z"/><glyph glyph-name="AE" unicode="Æ" horiz-adv-x="2062" d="M756 1122 548 552h208v570zM756 0v260H529L438 0H-80l475 1444h1605v-430h-768V848h496V596h-496V430h890V0H756z"/><glyph glyph-name="ae" unicode="æ" horiz-adv-x="2062" d="M756 1122 548 552h208v570zM756 0v260H529L438 0H-80l475 1444h1605v-430h-768V848h496V596h-496V430h890V0H756z"/><glyph glyph-name="Ccedilla" unicode="Ç" horiz-adv-x="1440" d="M692 4q-100 8-215 61.5t-227.5 142-176 222T10 739q0 174 63.5 307.5t176 222 227.5 142 339 65.5q232-12 354-56t246-160l-284-316q-72 60-128 86t-184 34q-124-16-185-51t-105-95-52-180q8-120 52-180t105-95 185-51q128 8 184 34t128 86l284-316q-124-116-246-160T898 1v-113q107-20 159-68t52-116q0-92-101.5-160.5T746-525q-63 0-159 8l15 87q42-12 100-14 100 0 135.5 31t35.5 85q0 38-39 66t-97 28q-17 0-44-3z"/><glyph glyph-name="ccedilla" unicode="ç" horiz-adv-x="1484" d="M752 4Q609 0 419 83.5T119.5 334 10 743q0 170 65.5 303.5t181.5 222 266.5 132T844 1444h640v-430h-452q-152 0-225-9t-130-30-101-73-51-184q5-128 51-183t112-73 136-25 208-7h452V0H958v-112q107-20 159-68t52-116q0-92-101.5-160.5T806-525q-63 0-159 8l15 87q42-12 100-14 100 0 135.5 31t35.5 85q0 38-39 66t-97 28q-17 0-44-3z"/><glyph glyph-name="Egrave" unicode="È" horiz-adv-x="1360" d="M60 0v1444h1238v-430H530V848h496V596H530V430h890V0H60zm143 1796h462l176-318z"/><glyph glyph-name="egrave" unicode="è" horiz-adv-x="1360" d="M60 0v1444h1238v-430H530V848h496V596H530V430h890V0H60zm143 1796h462l176-318z"/><glyph glyph-name="Eacute" unicode="É" horiz-adv-x="1360" d="M60 0v1444h1238v-430H530V848h496V596H530V430h890V0H60zm1251 1796H849l-176-318z"/><glyph glyph-name="eacute" unicode="é" horiz-adv-x="1360" d="M60 0v1444h1238v-430H530V848h496V596H530V430h890V0H60zm1251 1796H849l-176-318z"/><glyph glyph-name="Ecircumflex" unicode="Ê" horiz-adv-x="1360" d="M60 0v1444h1238v-430H530V848h496V596H530V430h890V0H60zm970 1534-279 283-278-283v-59l280 171 277-174v62z"/><glyph glyph-name="ecircumflex" unicode="ê" horiz-adv-x="1360" d="M60 0v1444h1238v-430H530V848h496V596H530V430h890V0H60zm970 1534-279 283-278-283v-59l280 171 277-174v62z"/><glyph glyph-name="Edieresis" unicode="Ë" horiz-adv-x="1360" d="M60 0v1444h1238v-430H530V848h496V596H530V430h890V0H60zm503 1764q51 0 83.5-33.5T679 1647q-5-61-38.5-92t-83.5-31q-48 0-81 33t-33 83q0 56 33 90t87 34zm378 0q51 0 83.5-33.5t32.5-83.5q-5-61-38.5-92t-83.5-31q-48 0-81 33t-33 83q0 56 33 90t87 34z"/><glyph glyph-name="edieresis" unicode="ë" horiz-adv-x="1360" d="M60 0v1444h1238v-430H530V848h496V596H530V430h890V0H60zm503 1764q51 0 83.5-33.5T679 1647q-5-61-38.5-92t-83.5-31q-48 0-81 33t-33 83q0 56 33 90t87 34zm378 0q51 0 83.5-33.5t32.5-83.5q-5-61-38.5-92t-83.5-31q-48 0-81 33t-33 83q0 56 33 90t87 34z"/><glyph glyph-name="Igrave" unicode="Ì" horiz-adv-x="550" d="M40 1444h470V0H40v1444zm-14 352h371l113-316z"/><glyph glyph-name="igrave" unicode="ì" horiz-adv-x="550" d="M40 1444h470V0H40v1444zm-14 352h371l113-316z"/><glyph glyph-name="Iacute" unicode="Í" horiz-adv-x="550" d="M508 1444H41V0h467v1444zm14 352H154L41 1480z"/><glyph glyph-name="iacute" unicode="í" horiz-adv-x="550" d="M508 1444H41V0h467v1444zm14 352H154L41 1480z"/><glyph glyph-name="Icircumflex" unicode="Î" horiz-adv-x="550" d="M40 1444h470V0H40v1444zm462 96-229 283-228-283v-59l229 171 228-174v62z"/><glyph glyph-name="icircumflex" unicode="î" horiz-adv-x="550" d="M40 1444h470V0H40v1444zm462 96-229 283-228-283v-59l229 171 228-174v62z"/><glyph glyph-name="Idieresis" unicode="Ï" horiz-adv-x="550" d="M40 1444h470V0H40v1444zm83 320q51 0 83.5-33.5T239 1647q-5-61-38.5-92t-83.5-31q-48 0-81 33t-33 83q0 56 33 90t87 34zm312 0q51 0 83.5-33.5T551 1647q-5-61-38.5-92t-83.5-31q-48 0-81 33t-33 83q0 56 33 90t87 34z"/><glyph glyph-name="idieresis" unicode="ï" horiz-adv-x="550" d="M40 1444h470V0H40v1444zm83 320q51 0 83.5-33.5T239 1647q-5-61-38.5-92t-83.5-31q-48 0-81 33t-33 83q0 56 33 90t87 34zm312 0q51 0 83.5-33.5T551 1647q-5-61-38.5-92t-83.5-31q-48 0-81 33t-33 83q0 56 33 90t87 34z"/><glyph glyph-name="Eth" unicode="Ð" horiz-adv-x="1804" d="M212 0v542H-42v252h254v650h852q173 0 305-46t223-124 151.5-211 60.5-346q-11-197-66-335t-146-218-222.5-124T1040 0H212zm482 1086V796h280V542H694V360h275q93 0 150 39.5t93 101 46 221.5q-3 146-40.5 215.5t-96.5 109-154 39.5H694z"/><glyph glyph-name="eth" unicode="ð" horiz-adv-x="1804" d="M212 0v542H-42v252h254v650h852q173 0 305-46t223-124 151.5-211 60.5-346q-11-197-66-335t-146-218-222.5-124T1040 0H212zm482 1086V796h280V542H694V360h275q93 0 150 39.5t93 101 46 221.5q-3 146-40.5 215.5t-96.5 109-154 39.5H694z"/><glyph glyph-name="Ntilde" unicode="Ñ" horiz-adv-x="1430" d="M60 0v1444h470l430-540v540h470V0H960L530 540V0H60zm976 1676q-148-140-323 51t-322-79l60-47q85 167 253-15t408 50z"/><glyph glyph-name="ntilde" unicode="ñ" horiz-adv-x="1430" d="M60 0v1444h470l430-540v540h470V0H960L530 540V0H60zm976 1676q-148-140-323 51t-322-79l60-47q85 167 253-15t408 50z"/><glyph glyph-name="Ograve" unicode="Ò" horiz-adv-x="1677" d="M1668 714q0-237-99-404T1282.5 59 835-25 388.5 59.5 106 309.5 10 714q0 181 55 318.5T226 1264t260 142.5 349 48.5q259 0 447-85.5t287-252 99-403.5zM203 1796h462l176-318zM523 710q0-139 62.5-242T832 365q142 0 212.5 54t88 123.5T1156 710q-6 139-67 242.5T832 1056q-309 0-309-346z"/><glyph glyph-name="ograve" unicode="ò" horiz-adv-x="1677" d="M1668 714q0-237-99-404T1282.5 59 835-25 388.5 59.5 106 309.5 10 714q0 181 55 318.5T226 1264t260 142.5 349 48.5q259 0 447-85.5t287-252 99-403.5zM203 1796h462l176-318zM523 710q0-139 62.5-242T832 365q142 0 212.5 54t88 123.5T1156 710q-6 139-67 242.5T832 1056q-309 0-309-346z"/><glyph glyph-name="Oacute" unicode="Ó" horiz-adv-x="1677" d="M1668 714q0-237-99-404T1282.5 59 835-25 388.5 59.5 106 309.5 10 714q0 181 55 318.5T226 1264t260 142.5 349 48.5q259 0 447-85.5t287-252 99-403.5zm-357 1082H849l-176-318zM523 710q0-139 62.5-242T832 365q142 0 212.5 54t88 123.5T1156 710q-6 139-67 242.5T832 1056q-309 0-309-346z"/><glyph glyph-name="oacute" unicode="ó" horiz-adv-x="1677" d="M1668 714q0-237-99-404T1282.5 59 835-25 388.5 59.5 106 309.5 10 714q0 181 55 318.5T226 1264t260 142.5 349 48.5q259 0 447-85.5t287-252 99-403.5zm-357 1082H849l-176-318zM523 710q0-139 62.5-242T832 365q142 0 212.5 54t88 123.5T1156 710q-6 139-67 242.5T832 1056q-309 0-309-346z"/><glyph glyph-name="Ocircumflex" unicode="Ô" horiz-adv-x="1677" d="M1668 714q0-237-99-404T1282.5 59 835-25 388.5 59.5 106 309.5 10 714q0 181 55 318.5T226 1264t260 142.5 349 48.5q259 0 447-85.5t287-252 99-403.5zm-554 824-290 300-287-300v-62l290 181 287-185v66zM523 710q0-139 62.5-242T832 365q142 0 212.5 54t88 123.5T1156 710q-6 139-67 242.5T832 1056q-309 0-309-346z"/><glyph glyph-name="ocircumflex" unicode="ô" horiz-adv-x="1677" d="M1668 714q0-237-99-404T1282.5 59 835-25 388.5 59.5 106 309.5 10 714q0 181 55 318.5T226 1264t260 142.5 349 48.5q259 0 447-85.5t287-252 99-403.5zm-554 824-290 300-287-300v-62l290 181 287-185v66zM523 710q0-139 62.5-242T832 365q142 0 212.5 54t88 123.5T1156 710q-6 139-67 242.5T832 1056q-309 0-309-346z"/><glyph glyph-name="Otilde" unicode="Õ" horiz-adv-x="1677" d="M1668 714q0-237-99-404T1282.5 59 835-25 388.5 59.5 106 309.5 10 714q0 181 55 318.5T226 1264t260 142.5 349 48.5q259 0 447-85.5t287-252 99-403.5zm-544 966q-148-140-323 51t-322-79l60-47q85 167 253-15t408 50zM523 710q0-139 62.5-242T832 365q142 0 212.5 54t88 123.5T1156 710q-6 139-67 242.5T832 1056q-309 0-309-346z"/><glyph glyph-name="otilde" unicode="õ" horiz-adv-x="1677" d="M1668 714q0-237-99-404T1282.5 59 835-25 388.5 59.5 106 309.5 10 714q0 181 55 318.5T226 1264t260 142.5 349 48.5q259 0 447-85.5t287-252 99-403.5zm-544 966q-148-140-323 51t-322-79l60-47q85 167 253-15t408 50zM523 710q0-139 62.5-242T832 365q142 0 212.5 54t88 123.5T1156 710q-6 139-67 242.5T832 1056q-309 0-309-346z"/><glyph glyph-name="Odieresis" unicode="Ö" horiz-adv-x="1677" d="M1668 714q0-237-99-404T1282.5 59 835-25 388.5 59.5 106 309.5 10 714q0 181 55 318.5T226 1264t260 142.5 349 48.5q259 0 447-85.5t287-252 99-403.5zm-545 1050q51 0 83.5-33.5t32.5-83.5q-5-61-38.5-92t-83.5-31q-48 0-81 33t-33 83q0 56 33 90t87 34zm-560 0q51 0 83.5-33.5T679 1647q-5-61-38.5-92t-83.5-31q-48 0-81 33t-33 83q0 56 33 90t87 34zM523 710q0-139 62.5-242T832 365q142 0 212.5 54t88 123.5T1156 710q-6 139-67 242.5T832 1056q-309 0-309-346z"/><glyph glyph-name="odieresis" unicode="ö" horiz-adv-x="1677" d="M1668 714q0-237-99-404T1282.5 59 835-25 388.5 59.5 106 309.5 10 714q0 181 55 318.5T226 1264t260 142.5 349 48.5q259 0 447-85.5t287-252 99-403.5zm-545 1050q51 0 83.5-33.5t32.5-83.5q-5-61-38.5-92t-83.5-31q-48 0-81 33t-33 83q0 56 33 90t87 34zm-560 0q51 0 83.5-33.5T679 1647q-5-61-38.5-92t-83.5-31q-48 0-81 33t-33 83q0 56 33 90t87 34zM523 710q0-139 62.5-242T832 365q142 0 212.5 54t88 123.5T1156 710q-6 139-67 242.5T832 1056q-309 0-309-346z"/><glyph glyph-name="Oslash" unicode="Ø" horiz-adv-x="1677" d="M640 420q4-48 188-52 148 0 238 76t94 245v123zm806 854 110 88 112-150-88-78q88-183 88-420t-99-404-286.5-251T835-25 280 124L112-8 2 140l134 108Q10 475 10 714q0 181 55 318.5T226 1264t260 142.5 349 48.5q259 0 410-71.5t201-109.5zm-390-302q0 76-220 84-320 0-306-349-6-67 6-135z"/><glyph glyph-name="oslash" unicode="ø" horiz-adv-x="1677" d="M640 420q4-48 188-52 148 0 238 76t94 245v123zm806 854 110 88 112-150-88-78q88-183 88-420t-99-404-286.5-251T835-25 280 124L112-8 2 140l134 108Q10 475 10 714q0 181 55 318.5T226 1264t260 142.5 349 48.5q259 0 410-71.5t201-109.5zm-390-302q0 76-220 84-320 0-306-349-6-67 6-135z"/><glyph glyph-name="Ugrave" unicode="Ù" horiz-adv-x="1454" d="M480 1444V590q-6-146 56-203t194-61q106 2 177 62t67 202v854h470V597q-3-180-59.5-287.5t-143-179.5-217-112T734-26q-133 3-270.5 36.5T223.5 116t-158 185T10 596v848h470zm-277 352h462l176-318z"/><glyph glyph-name="ugrave" unicode="ù" horiz-adv-x="1454" d="M480 1444V590q-6-146 56-203t194-61q106 2 177 62t67 202v854h470V597q-3-180-59.5-287.5t-143-179.5-217-112T734-26q-133 3-270.5 36.5T223.5 116t-158 185T10 596v848h470zm-277 352h462l176-318z"/><glyph glyph-name="Uacute" unicode="Ú" horiz-adv-x="1454" d="M480 1444V590q-6-146 56-203t194-61q106 2 177 62t67 202v854h470V597q-3-180-59.5-287.5t-143-179.5-217-112T734-26q-133 3-270.5 36.5T223.5 116t-158 185T10 596v848h470zm831 352H849l-176-318z"/><glyph glyph-name="uacute" unicode="ú" horiz-adv-x="1454" d="M480 1444V590q-6-146 56-203t194-61q106 2 177 62t67 202v854h470V597q-3-180-59.5-287.5t-143-179.5-217-112T734-26q-133 3-270.5 36.5T223.5 116t-158 185T10 596v848h470zm831 352H849l-176-318z"/><glyph glyph-name="Ucircumflex" unicode="Û" horiz-adv-x="1454" d="M480 1444V590q-6-146 56-203t194-61q106 2 177 62t67 202v854h470V597q-3-180-59.5-287.5t-143-179.5-217-112T734-26q-133 3-270.5 36.5T223.5 116t-158 185T10 596v848h470zm550 94-290 300-287-300v-62l290 181 287-185v66z"/><glyph glyph-name="ucircumflex" unicode="û" horiz-adv-x="1454" d="M480 1444V590q-6-146 56-203t194-61q106 2 177 62t67 202v854h470V597q-3-180-59.5-287.5t-143-179.5-217-112T734-26q-133 3-270.5 36.5T223.5 116t-158 185T10 596v848h470zm550 94-290 300-287-300v-62l290 181 287-185v66z"/><glyph glyph-name="Udieresis" unicode="Ü" horiz-adv-x="1454" d="M480 1444V590q-6-146 56-203t194-61q106 2 177 62t67 202v854h470V597q-3-180-59.5-287.5t-143-179.5-217-112T734-26q-133 3-270.5 36.5T223.5 116t-158 185T10 596v848h470zm467 324q51 0 83.5-33.5t32.5-83.5q-5-61-38.5-92t-83.5-31q-48 0-81 33t-33 83q0 56 33 90t87 34zm-448-4q51 0 83.5-33.5T615 1647q-5-61-38.5-92t-83.5-31q-48 0-81 33t-33 83q0 56 33 90t87 34z"/><glyph glyph-name="udieresis" unicode="ü" horiz-adv-x="1454" d="M480 1444V590q-6-146 56-203t194-61q106 2 177 62t67 202v854h470V597q-3-180-59.5-287.5t-143-179.5-217-112T734-26q-133 3-270.5 36.5T223.5 116t-158 185T10 596v848h470zm467 324q51 0 83.5-33.5t32.5-83.5q-5-61-38.5-92t-83.5-31q-48 0-81 33t-33 83q0 56 33 90t87 34zm-448-4q51 0 83.5-33.5T615 1647q-5-61-38.5-92t-83.5-31q-48 0-81 33t-33 83q0 56 33 90t87 34z"/><glyph glyph-name="Yacute" unicode="Ý" horiz-adv-x="1472" d="M1602 1444 972 530V0H500v530l-630 914h570l294-446 298 446h570zm-343 352H797l-176-318z"/><glyph glyph-name="yacute" unicode="ý" horiz-adv-x="1472" d="M1602 1444 972 530V0H500v530l-630 914h570l294-446 298 446h570zm-343 352H797l-176-318z"/><glyph glyph-name="Thorn" unicode="Þ" horiz-adv-x="1378" d="M510 272V0H40v1444h470v-253q400 1 507.5-28t181.5-79 123-134.5 49-220.5q-8-126-53-214t-119-139-181-79-268-26zm0 636V530l222-1q75 0 121.5 20.5t76 53T967 719q-2 76-32.5 112.5t-79 56.5T730 908H510z"/><glyph glyph-name="thorn" unicode="þ" horiz-adv-x="1378" d="M510 272V0H40v1444h470v-253q400 1 507.5-28t181.5-79 123-134.5 49-220.5q-8-126-53-214t-119-139-181-79-268-26zm0 636V530l222-1q75 0 121.5 20.5t76 53T967 719q-2 76-32.5 112.5t-79 56.5T730 908H510z"/><glyph glyph-name="germandbls" unicode="ß" horiz-adv-x="1628" d="M558 559v-855H60v1740h985q237-2 360.5-82t149.5-268q9-144-61-226t-231-135v-4q79-10 146-42.5t112.5-77T1592 509t25-110q0-171-87.5-259t-225-115T971 0H684v292h195q83-3 145 36t62 96q6 63-50.5 99T879 559l-235 1v316l264-1q29 0 61 30.5t34 81.5q-4 59-38.5 83t-57.5 24H558V559z"/><glyph glyph-name="ydieresis" unicode="ÿ" horiz-adv-x="1472" d="M1602 1444 972 530V0H500v530l-630 914h570l294-446 298 446h570zM499 1764q51 0 83.5-33.5T615 1647q-5-61-38.5-92t-83.5-31q-48 0-81 33t-33 83q0 56 33 90t87 34zm448 4q51 0 83.5-33.5t32.5-83.5q-5-61-38.5-92t-83.5-31q-48 0-81 33t-33 83q0 56 33 90t87 34z"/><glyph glyph-name="OE" unicode="Œ" horiz-adv-x="2062" d="M749 0Q573-8 389 86T109 330 17 716q-8 180 52 310t164 224 252 142 340 52h1168v-430h-768V848h496V596h-496V430h890V0H749zM516 710q0-139 62.5-242T825 365v691q-309 0-309-346z"/><glyph glyph-name="oe" unicode="œ" horiz-adv-x="2062" d="M749 0Q573-8 389 86T109 330 17 716q-8 180 52 310t164 224 252 142 340 52h1168v-430h-768V848h496V596h-496V430h890V0H749zM516 710q0-139 62.5-242T825 365v691q-309 0-309-346z"/><glyph glyph-name="Scaron" unicode="Š" horiz-adv-x="1135" d="M1196 1444H408q-276 0-328-268t296-588q211-166-72-158H0V0h768q312 52 318 320T768 872q-181 150 76 142h352v430zm-274 380-290-366-287 366v76l290-221 287 225v-80z"/><glyph glyph-name="scaron" unicode="š" horiz-adv-x="1135" d="M1196 1444H408q-276 0-328-268t296-588q211-166-72-158H0V0h768q312 52 318 320T768 872q-181 150 76 142h352v430zm-274 380-290-366-287 366v76l290-221 287 225v-80z"/><glyph glyph-name="Ydieresis" unicode="Ÿ" horiz-adv-x="1472" d="M1602 1444 972 530V0H500v530l-630 914h570l294-446 298 446h570zM499 1764q51 0 83.5-33.5T615 1647q-5-61-38.5-92t-83.5-31q-48 0-81 33t-33 83q0 56 33 90t87 34zm448 4q51 0 83.5-33.5t32.5-83.5q-5-61-38.5-92t-83.5-31q-48 0-81 33t-33 83q0 56 33 90t87 34z"/><glyph glyph-name="Zcaron" unicode="Ž" horiz-adv-x="1400" d="M40 1444h1320v-430L661 430h699V0H40v430l699 584H40v430zm882 380-290-366-287 366v76l290-221 287 225v-80z"/><glyph glyph-name="zcaron" unicode="ž" horiz-adv-x="1400" d="M40 1444h1320v-430L661 430h699V0H40v430l699 584H40v430zm882 380-290-366-287 366v76l290-221 287 225v-80z"/><glyph glyph-name="questiondown" unicode="¿" horiz-adv-x="1176" d="M465 933h410q-8-143-47-218.5t-89.5-113-94-71.5-43.5-86 52-68 150-16q69 0 150.5 20.5T1092 428V75Q974 38 870.5 19T646 0Q524 0 396 28.5T176 135 84 348q0 104 48.5 172.5t147 148.5 142 132T465 933zm428 150H447v385h446v-385z"/><glyph glyph-name="paragraph" unicode="¶" horiz-adv-x="1423" d="M440-205v819q-162 0-285 124Q31 862 31 1024t124 286 285 124h840V-205H922v1229H799V-205H440z"/><glyph glyph-name="registered" unicode="®" horiz-adv-x="1751" d="m1096 614 153-286H963L850 543h-41V328H543v778h368q135 0 222-80 86-80 86-197 0-68-31-122t-62-72zM809 870V768h72q61 0 61 51t-61 51h-72zm62-716q231 0 397 167 166 166 166 396 0 229-166 396t-397 167q-232 0-398-167T307 717q0-230 166-396 166-167 398-167zm0-205q-336 0-562 222Q82 393 82 717q0 323 227 546 226 222 562 222 335 0 562-222 226-223 226-546 0-324-226-546Q1206-51 871-51z"/></font>
</defs>
</svg>
